We use our own and third party cookies to analyze our services. If you continue to browse, we consider that you accept their use. More information HERE

WATERSON : CARTHY - A DARK LIGHT - 2002 - CD - DISCO VERIFICADO


6 fotos WATERSON : CARTHY - A DARK LIGHT - 2002 - CD - DISCO VERIFICADO (Música - CD's Country y Folk)

Follow
  • Items: 1

    Condition: Normal (with signs of use)


    No aprecio marcas de uso en el cd y se ha extraído con precisión con el programa Exact Audio Copy (ver informe al final)

    +++

    Bajo ningún concepto se envía ordinario, siempre certificado

    Gastos de envío gratis para pedidos superiores a 30 euros con destino a España

    (excepto Canarias, consulte coste sin compromiso)

    Vea coste de envío en el apartado "Formas de pago y envío"

    Fotos reales del artículo

    +++

    Exact Audio Copy V1.5 from 20. February 2020

    Archivo Log de extracciones desde 28. Agosto 2021, 20:58

    Waterson:Carthy / A Dark Light

    Usar unidad  : hp      DVDRAM GU90N   Adapter: 1  ID: 0

    Modo de Lectura   :        : Seguro
    Utilizar corriente precisa : Sí
    Caché de audio por defecto : No
    Utilizar los punteros C2   : No

    Corrección de Desplazamiento de Lectura :     : 102
    Sobreleer tanto en Lead-In como en Lead-Out   : No
    Rellenar las muestras faltantes con silencios : Sí
    Eliminar silencios inicial y final            : No
    Muestras nulas usadas en los calculos de CRC  : Sí
    Interfaz usada                                : Interfaz propio de Win32 para Windowns NT y 2000
    Manejo de huecos                              : No se detectó, por lo que anexa a la pista anterior

    Formato de Salida utilizado :  : Rutinas WAV Internas
    Formato de muestra             : 44.100 Hz; 16 Bit; Estéreo


    TOC extraídos del CD

         Pista |  Inicio  | Longitud | Inicio del sector | Fin del sector 
        ------------------------------------------------------------------
            1  |  0:00.00 |  3:39.38 |           0       |      16462     
            2  |  3:39.38 |  5:42.54 |       16463       |      42166     
            3  |  9:22.17 |  5:07.19 |       42167       |      65210     
            4  | 14:29.36 |  5:05.00 |       65211       |      88085     
            5  | 19:34.36 |  6:36.42 |       88086       |     117827     
            6  | 26:11.03 |  4:05.43 |      117828       |     136245     
            7  | 30:16.46 |  5:39.67 |      136246       |     161737     
            8  | 35:56.38 |  3:28.34 |      161738       |     177371     
            9  | 39:24.72 |  4:00.01 |      177372       |     195372     
           10  | 43:24.73 |  7:08.60 |      195373       |     227532     
           11  | 50:33.58 |  7:05.17 |      227533       |     259424     


    Pista  1

         Nombre de Archivo 01 The Devil and the Farmer.wav

         Nivel Pico 99.3 %
         Velocidad de extracción 4.3 X
         Calidad de Pista 100.0 %
         Comprobación CRC 3C0D3951
         Copiar CRC 3C0D3951
         Extraida con precisión (confidencia 15)  [3006C616]  (AR v2)
         Copia OK

    Pista  2

         Nombre de Archivo 02 May Morning.wav

         Nivel Pico 98.6 %
         Velocidad de extracción 4.9 X
         Calidad de Pista 100.0 %
         Comprobación CRC 8596D21C
         Copiar CRC 8596D21C
         Extraida con precisión (confidencia 15)  [F72AF530]  (AR v2)
         Copia OK

    Pista  3

         Nombre de Archivo 03 Death and the Lady.wav

         Nivel Pico 99.2 %
         Velocidad de extracción 5.1 X
         Calidad de Pista 100.0 %
         Comprobación CRC 1CD93546
         Copiar CRC 1CD93546
         Extraida con precisión (confidencia 15)  [32BFAC4F]  (AR v2)
         Copia OK

    Pista  4

         Nombre de Archivo 04 The Outlandish Knight.wav

         Nivel Pico 94.9 %
         Velocidad de extracción 5.5 X
         Calidad de Pista 100.0 %
         Comprobación CRC 3D3B1FB6
         Copiar CRC 3D3B1FB6
         Extraida con precisión (confidencia 15)  [50E96249]  (AR v2)
         Copia OK

    Pista  5

         Nombre de Archivo 05 Balancy Straw , Seventeen Come Sunday , Whitefriars Hornpipe.wav

         Nivel Pico 99.4 %
         Velocidad de extracción 5.9 X
         Calidad de Pista 100.0 %
         Comprobación CRC A6E42307
         Copiar CRC A6E42307
         Extraida con precisión (confidencia 15)  [8ACC6830]  (AR v2)
         Copia OK

    Pista  6

         Nombre de Archivo 06 The Lofty Tall Ship.wav

         Nivel Pico 99.3 %
         Velocidad de extracción 6.2 X
         Calidad de Pista 100.0 %
         Comprobación CRC 20BC4354
         Copiar CRC 20BC4354
         Extraida con precisión (confidencia 15)  [E8329EFA]  (AR v2)
         Copia OK

    Pista  7

         Nombre de Archivo 07 The Holland Hankerchief.wav

         Nivel Pico 96.0 %
         Velocidad de extracción 6.5 X
         Calidad de Pista 100.0 %
         Comprobación CRC 59391FB5
         Copiar CRC 59391FB5
         Extraida con precisión (confidencia 15)  [925E48B3]  (AR v2)
         Copia OK

    Pista  8

         Nombre de Archivo 08 The Old Churchyard.wav

         Nivel Pico 99.3 %
         Velocidad de extracción 6.0 X
         Calidad de Pista 99.9 %
         Comprobación CRC C472D714
         Copiar CRC C472D714
         Extraida con precisión (confidencia 15)  [06DF2D31]  (AR v2)
         Copia OK

    Pista  9

         Nombre de Archivo 09 Crystal Spring.wav

         Nivel Pico 98.7 %
         Velocidad de extracción 6.2 X
         Calidad de Pista 99.9 %
         Comprobación CRC EDCB4602
         Copiar CRC EDCB4602
         Extraida con precisión (confidencia 15)  [A6648516]  (AR v2)
         Copia OK

    Pista 10

         Nombre de Archivo 10 Diego's Bold Shore.wav

         Nivel Pico 93.5 %
         Velocidad de extracción 7.2 X
         Calidad de Pista 100.0 %
         Comprobación CRC 404CDD90
         Copiar CRC 404CDD90
         Extraida con precisión (confidencia 15)  [27409C90]  (AR v2)
         Copia OK

    Pista 11

         Nombre de Archivo 11 Shepherds Arise.wav

         Nivel Pico 99.3 %
         Velocidad de extracción 7.5 X
         Calidad de Pista 100.0 %
         Comprobación CRC 181E9ECD
         Copiar CRC 181E9ECD
         Extraida con precisión (confidencia 15)  [2726E43A]  (AR v2)
         Copia OK


    Todas las pistas extraidas con precisión

    Sin Errores

    Final del Informe

    ---- CUETools DB Plugin V2.1.6

    [CTDB TOCID: EFmKpW5kEOdYW8zcgv401.GRkmo-] found
    Submit result: EFmKpW5kEOdYW8zcgv401.GRkmo- has been confirmed
    Track | CTDB Status
      1   | (23/24) Accurately ripped
      2   | (24/24) Accurately ripped
      3   | (24/24) Accurately ripped
      4   | (24/24) Accurately ripped
      5   | (24/24) Accurately ripped
      6   | (24/24) Accurately ripped
      7   | (24/24) Accurately ripped
      8   | (24/24) Accurately ripped
      9   | (24/24) Accurately ripped
     10   | (24/24) Accurately ripped
     11   | (23/24) Accurately ripped

  • tc Pay The seller accepts tc Pay.
    Safe and secure payment method, an integrated card payment gateway, fast and efficient.

gilypo

(1.885)
Spain (Cantabria)
Member since: 19/11/2014

  Add to favourites

Report on this lot